<svg xmlns="http://www.w3.org/2000/svg"><defs><font horiz-adv-x="2048"><font-face ascent="2048" bbox="-0.0140489 0 2048.01 2048" descent="0" panose-1="2 0 5 3 0 0 0 0 0 0" underline-position="-204.8" underline-thickness="102.4" unicode-range="U+0020-F517" units-per-em="2048"/><missing-glyph/><glyph glyph-name="space" horiz-adv-x="200" unicode="&#x20;"/><glyph d="M256 1280c565.504 0 1024-458.496 1024-1024h-256c0 423.552-344.448 768-768 768v256zM256 1792c848.256 0 1536-687.744 1536-1536h-256c0 705.792-574.208 1280-1280 1280v256zM448 640c106.112 0 192-86.0156 192-192s-85.8877-192-192-192-192 86.0156-192 192 85.8877 192 192 192z" glyph-name="uniF413" unicode="&#xf413;"/><glyph d="M618.502 1337l-213.004 142.004-303.335-455.002 303.335-455.002 213.004 142.004-208.665 312.998zM1642.5 1479l-213.004-142.004 208.665-312.998-208.665-312.998 213.004-142.004 303.335 455.002zM771.821 543.045l248.357-62.0898 256 1024-248.357 62.0898z" glyph-name="uniF462" unicode="&#xf462;"/><glyph d="M1024 1792c424.064 0 768-343.936 768-768s-343.936-768-768-768c-424.192 0-768 343.936-768 768s343.808 768 768 768zM1024 512c70.6562 0 128 57.4717 128 128s-57.3438 128-128 128c-70.7842 0-128-57.4717-128-128s57.2158-128 128-128zM1342.72 1155.84c24.832 38.9121 37.248 85.1201 37.1201 138.752 0 74.4961-27.6475 133.504-83.7119 176.641-55.9355 43.2637-133.632 64.7676-231.936 64.7676-119.809 0-234.496-31.2324-344.32-93.9521l91.9043-180.096c89.2158 47.2314 167.168 70.9121 233.983 70.9121 26.752 0 48.5127-5.37598 65.2803-16.2559 17.2803-10.752 25.4717-25.4727 25.4717-44.0322 0-23.2959-8.06348-44.0322-23.5518-62.208-16-18.0479-41.4717-38.4004-77.1836-60.9277-45.1846-28.1602-76.416-57.0889-94.3359-87.04-17.5361-29.6963-26.3682-66.4326-26.3682-109.44v-56.96h203.647v34.0479c0 18.6885 5.50391 35.2002 17.2803 48.8965 12.0322 14.0801 40.96 36.0957 86.9121 66.0479 55.04 34.8154 94.5918 71.6797 119.808 110.848z" glyph-name="uniF457" unicode="&#xf457;"/><glyph d="M1541.38 1530.62l506.624-506.624-506.624-506.624c-131.456-134.272-314.752-217.728-517.376-217.728-202.752 0-386.048 83.4551-517.504 217.983l-506.496 506.368v0l506.496 506.496c131.456 134.4 314.624 217.984 517.504 217.984 202.752 0 385.92-83.584 517.376-217.856zM1404.42 651.776l372.096 372.224-370.943 370.944c-102.528 104.704-237.568 161.536-381.568 161.536-144.128 0-279.168-56.9609-380.288-160.385l-372.096-372.096 370.688-370.56c102.528-104.96 237.696-161.792 381.824-161.792 144 0 279.168 56.832 380.288 160.128zM1408 1024zM640 1024c0 212.096 172.032 384 384 384s384-171.904 384-384c0-211.968-172.032-384-384-384s-384 172.032-384 384zM768 1152c0-70.6562 57.2158-128 128-128 70.6562 0 128 57.3438 128 128s-57.3438 128-128 128c-70.7842 0-128-57.3438-128-128z" glyph-name="uniF403" unicode="&#xf403;"/><glyph d="M256 1408v256h256v-256h-256zM768 1664h1024v-256h-1024v256zM256 896v256h256v-256h-256zM1408 1152v-256h-640v256h640zM256 384v256h256v-256h-256zM768 384v256h896v-256h-896z" glyph-name="uniF505" unicode="&#xf505;"/><glyph d="M1920 1024l-384-384v256h-384v-384h256l-384-384-384 384h256v384h-384v-256l-384 384 384 384v-256h384v384h-256l384 384 384-384h-256v-384h384v256z" glyph-name="uniF50F" unicode="&#xf50f;"/><glyph d="M768 640v128h128v-128h-128zM768 896v128h128v-128h-128zM768 1152v128h128v-128h-128zM512 640v128h128v-128h-128zM512 896v128h128v-128h-128zM1280 896v128h128v-128h-128zM1024 1152v128h128v-128h-128zM1280 1152v128h128v-128h-128zM1408 1664h256v-1280h-1408v1280h256v128h128v-128h640v128h128v-128zM1536 640v640c0 70.7842-57.2158 128-128 128h-896c-70.6562 0-128-57.2158-128-128v-640c0-70.7842 57.3438-128 128-128h896c70.7842 0 128 57.2158 128 128zM1024 896v128h128v-128h-128zM1024 640v128h128v-128h-128z" glyph-name="uniF307" unicode="&#xf307;"/><glyph d="M1664 1280h128l-256-768h-768l256 768h128l86.2725 256h339.455zM1300.86 1280h214.271l-43.1357 128h-128zM809.728 1536l86.2725-256-256-768h-128l-256 768h128l86.2725 256h339.455zM532.864 1280h214.271l-43.1357 128h-128z" glyph-name="uniF460" unicode="&#xf460;"/><glyph d="M1024 1453.31l86.6562-86.6553-342.656-342.656h896v-128h-896l342.656-342.656-86.6562-86.6553-493.312 493.312z" glyph-name="uniF430" unicode="&#xf430;"/><glyph d="M1024 1920c499.2 0 896-396.8 896-896s-396.8-896-896-896-896 396.8-896 896 396.8 896 896 896zM1382.4 601.6c38.3994 0 64 25.6006 64 51.2002 0 38.4004-12.8008 51.2002-38.4004 64-153.6 89.6006-332.8 140.8-524.8 140.8-115.2 0-217.601-25.5996-320-51.1992-25.6006-12.8008-51.2002-25.6006-51.2002-64 0-25.6006 12.7998-51.2002 51.2002-51.2002 0 0 25.5996 12.7998 38.3994 12.7998 89.6006 12.7998 192 25.5996 281.601 25.5996 166.399 0 332.8-38.3994 460.8-115.199 12.7998-12.8008 25.5996-12.8008 38.4004-12.8008zM1484.8 832c38.4004 0 64 38.4004 64 76.7998 0 38.4004-12.7998 64-38.3994 76.7998-179.2 102.4-409.601 166.4-640 166.4-153.601 0-256-25.5996-358.4-51.2002-38.4004-12.7998-51.2002-38.3994-51.2002-76.7998s38.4004-76.7998 76.7998-89.5996c12.8008 0 25.6006 12.7998 38.4004 12.7998 76.7998 25.5996 179.2 38.3994 294.4 38.3994 217.6 0 422.399-51.1992 563.199-140.8 25.6006 0 25.6006-12.7998 51.2002-12.7998zM1600 1113.6c38.4004 0 76.7998 38.4004 76.7998 89.6006 0 38.3994-25.5996 64-51.2002 76.7998-204.8 128-473.6 179.2-742.399 179.2-153.601 0-294.4-12.7998-422.4-51.2002-38.3994-12.7998-64-38.4004-64-89.5996 0-51.2002 38.4004-89.6006 89.6006-89.6006 25.5996 0 38.3994 12.7998 51.1992 12.7998 115.2 25.6006 230.4 38.4004 358.4 38.4004 243.2 0 486.4-51.2002 652.8-153.6 25.6006-12.8008 38.4004-12.8008 51.2002-12.8008z" glyph-name="uniF515" unicode="&#xf515;"/><glyph d="M512 384v1280h384v-1280h-384zM1152 1664h384v-1280h-384v1280z" glyph-name="uniF448" unicode="&#xf448;"/><glyph d="M1536 2048c141.312 0 256-114.688 256-256v-1536c0-141.312-114.688-256-256-256h-1024c-141.312 0-256 114.688-256 256v1536c0 141.312 114.688 256 256 256h1024zM1024 128c70.7842 0 128 57.2158 128 128s-57.2158 128-128 128c-70.6562 0-128-57.2158-128-128s57.3438-128 128-128zM1536 512v1280h-1024v-1280h1024z" glyph-name="uniF453" unicode="&#xf453;"/><glyph d="M0 256v256h2048v-256h-2048zM0 1792h2048v-256h-2048v256zM0 896v256h2048v-256h-2048z" glyph-name="uniF419" unicode="&#xf419;"/><glyph d="M567.936 1440.9l-267.136-480.896h403.2v-384h-128v256h-492.8l372.864 671.104zM1644.8 960h403.2v-384h-128v256h-492.8l372.864 671.104 112-62.207zM1088 1344c176.768 0 320-143.232 320-320s-143.232-320-320-320-320 143.232-320 320 143.232 320 320 320zM1088 832c105.856 0 192 86.1436 192 192s-86.1436 192-192 192-192-86.1436-192-192 86.1436-192 192-192z" glyph-name="uniF423" unicode="&#xf423;"/><glyph d="M1920 1280l-555.136-387.968 212.863-636.032-553.728 394.496-553.728-394.496 212.991 636.032-555.264 387.968h685.312l210.688 640 210.688-640h685.312z" glyph-name="uniF512" unicode="&#xf512;"/><glyph d="M960 1792c318.08 0 576-257.92 576-576 0-159.232-64.6396-303.36-169.088-407.68l-406.912-407.04-406.912 407.04c-104.448 104.319-169.088 248.447-169.088 407.68 0 318.08 257.92 576 576 576zM960 896c176.64 0 320 143.36 320 320s-143.36 320-320 320c-176.768 0-320-143.36-320-320s143.232-320 320-320z" glyph-name="uniF417" unicode="&#xf417;"/><glyph d="M256 1536h1536v-128l-768-384-768 384v128zM256 1216l768-384 768 384v-704h-1536v704z" glyph-name="uniF410" unicode="&#xf410;"/><glyph d="M512 512v1024h1024v-1024h-1024z" glyph-name="uniF449" unicode="&#xf449;"/><glyph d="M1280 1280c282.752 0 512-229.248 512-512v-299.904l-150.016 149.889c-99.9688 99.9678-231.04 150.016-361.984 150.016h-256v-384l-640 640 640 640v-384h256z" glyph-name="uniF467" unicode="&#xf467;"/><glyph d="M1536 1792c141.312 0 256-114.688 256-256v-384c0-424.064-343.936-768-768-768s-768 343.936-768 768v384c0 141.312 114.688 256 256 256h1024zM1498.5 1189.5c50.0479 50.0479 50.0479 131.072 0 180.992-50.0479 50.0479-130.944 50.0479-180.992 0l-293.504-293.504-293.504 293.504c-50.0479 50.0479-131.072 50.0479-180.992 0-50.0479-49.9199-50.0479-130.944 0-180.992l361.984-361.984 4.22363 4.22461c22.4004-37.376 61.5684-63.7441 108.288-63.7441s85.8877 26.3682 108.288 63.7441l4.22363-4.22461z" glyph-name="uniF224" unicode="&#xf224;"/><glyph d="M1664 1920c141.312 0 256-114.688 256-256v-1280c0-141.312-114.688-256-256-256h-281.856v711.168h269.44l12.416 259.456h-281.984v192.384.255859 12.0322c0 71.2959 15.2324 114.432 108.544 114.432 86.6562 0 166.017-.639648 166.017-.639648l5.8877 242.304s-77.6963 9.98438-182.528 9.98438c-259.584 0-372.096-159.872-372.096-333.952v-236.8h-254.336v-259.328h254.336v-711.296h-723.84c-141.312 0-256 114.688-256 256v1280c0 141.312 114.688 256 256 256h1280z" glyph-name="uniF203" unicode="&#xf203;"/><glyph d="M128 2048h1920l-960-960z" glyph-name="uniF502" unicode="&#xf502;"/><glyph d="M1920 832l-640-640v448h-1024v704l384 384v-704h640v448z" glyph-name="uniF412" unicode="&#xf412;"/><glyph d="M1152 640v-256h256l-384-384-384 384h256v256h256zM1664 1024c141.312 0 256-114.688 256-256s-114.688-256-256-256h-384v256h-512v-256h-384c-141.312 0-256 114.688-256 256s114.688 256 256 256h6.40039c-4.09668 20.7363-6.40039 42.1123-6.40039 64 0 176.768 143.232 320 320 320 89.3438 0 169.984-36.7363 227.968-95.8721 60.7998 131.84 193.408 223.872 348.032 223.872 211.968 0 384-171.904 384-384 0-45.1836-9.21582-87.8076-23.5518-128h23.5518z" glyph-name="uniF440" unicode="&#xf440;"/><glyph d="M1408 1664h256v-1280h-1408v1280h256v128h128v-128h640v128h128v-128zM1536 640v640c0 70.7842-57.2158 128-128 128h-896c-70.6562 0-128-57.2158-128-128v-640c0-70.7842 57.3438-128 128-128h896c70.7842 0 128 57.2158 128 128zM960 1280c35.3281 0 64-28.6719 64-64v-512c0-35.3281-28.6719-64-64-64s-64 28.6719-64 64v448h-64c-35.3281 0-64 28.6719-64 64s28.6719 64 64 64h128z" glyph-name="uniF305" unicode="&#xf305;"/><glyph d="M1152 1664l384-384v-121.472-6.52832-768h-1024v1280h512 128zM1408 512v640h-256-128v128 256h-384v-1024h768z" glyph-name="uniF443" unicode="&#xf443;"/><glyph d="M1280 1728l448-448-896-896h-448v448zM1280 1536l-594.688-594.688 96-96 594.688 594.688zM768 512l128 128-96 96v0l-64 64v0l-96 96-128-128zM845.312 781.312l96-96 594.688 594.688-96 96z" glyph-name="uniF411" unicode="&#xf411;"/><glyph d="M896 1536v-256h256v-128h-256v-256h-128v256h-256v128h256v256h128zM1297.15 878.848l494.848-494.848-128-128-494.848 494.848c-94.8486-68.9912-210.816-110.848-337.152-110.848-318.08 0-576 257.92-576 576s257.92 576 576 576 576-257.92 576-576c0-126.336-41.8564-242.304-110.848-337.152zM832 768c247.552 0 448 200.576 448 448s-200.448 448-448 448c-247.424 0-448-200.576-448-448s200.576-448 448-448z" glyph-name="uniF402" unicode="&#xf402;"/><glyph d="M483.2 1564.8l-227.2 227.2h640v-640l-232.32 232.32c-93.0557-92.1602-151.68-218.88-151.68-360.32 0-238.208 163.584-436.736 384-493.824v-262.656c-363.008 61.0566-640 376.064-640 756.48 0 212.096 88.0645 402.048 227.2 540.8zM1792 1024c0-212.096-88.0645-401.92-227.2-540.8l227.2-227.2h-640v640l18.5596-18.5596 213.761-213.761c93.0557 92.1602 151.68 218.88 151.68 360.32 0 238.208-163.584 436.736-384 493.824v262.656c363.008-61.0566 640-376.064 640-756.48z" glyph-name="uniF420" unicode="&#xf420;"/><glyph d="M704 1024c35.3281 0 64-28.6719 64-64s-28.6719-64-64-64-64 28.6719-64 64 28.6719 64 64 64zM704 1280c35.3281 0 64-28.6719 64-64s-28.6719-64-64-64-64 28.6719-64 64 28.6719 64 64 64zM704 768c35.3281 0 64-28.6719 64-64s-28.6719-64-64-64-64 28.6719-64 64 28.6719 64 64 64zM896 896v128h384v-128h-384zM896 640v128h384v-128h-384zM1280 1664h256v-1280h-1152v1280h256c0 70.7842 57.3438 128 128 128h384c70.7842 0 128-57.2158 128-128zM832 1664c-35.3281 0-64-28.6719-64-64s28.6719-64 64-64h256c35.3281 0 64 28.6719 64 64s-28.6719 64-64 64h-256zM1408 512v1024h-128v-128h-640v128h-128v-1024h896zM896 1152v128h384v-128h-384z" glyph-name="uniF425" unicode="&#xf425;"/><glyph d="M1450.5 1395.2c45.6963-69.376 124.288-115.2 213.504-115.2 5.50391 0 10.4961 1.28027 15.8721 1.66406l-399.872-799.872-256 512-256-512-128 256-256-512-299.776 599.424 228.992 114.561 70.7842-141.568 256 512 128-256 256 512 256-512zM1664 1728c106.112 0 192-86.0156 192-192s-85.8877-192-192-192-192 86.0156-192 192 85.8877 192 192 192z" glyph-name="uniF508" unicode="&#xf508;"/><glyph d="M1792 604.544c76.2881-44.416 128-126.08 128-220.544 0-141.312-114.688-256-256-256s-256 114.688-256 256c0 94.5918 51.7119 176.128 128 220.544v163.456c0 70.7842-57.2158 128-128 128h-256v-291.456c76.2881-44.416 128-126.08 128-220.544 0-141.312-114.688-256-256-256s-256 114.688-256 256c0 94.4639 51.8398 176.128 128 220.544v291.456h-256c-70.6562 0-128-57.2158-128-128v-163.456c76.1602-44.416 128-126.08 128-220.544 0-141.312-114.688-256-256-256s-256 114.688-256 256c0 94.4639 51.8398 176.128 128 220.544v163.456c0 212.096 171.904 384 384 384h256v291.456c-76.1602 44.416-128 126.08-128 220.544 0 141.312 114.688 256 256 256s256-114.688 256-256c0-94.4639-51.7119-176.128-128-220.544v-291.456h256c211.968 0 384-171.904 384-384v-163.456zM1024 1792c-70.6562 0-128-57.3438-128-128s57.3438-128 128-128 128 57.3438 128 128-57.3438 128-128 128zM384 256c70.6562 0 128 57.2158 128 128s-57.3438 128-128 128-128-57.2158-128-128 57.3438-128 128-128zM1024 256c70.6562 0 128 57.2158 128 128s-57.3438 128-128 128-128-57.2158-128-128 57.3438-128 128-128zM1664 256c70.7842 0 128 57.2158 128 128s-57.2158 128-128 128-128-57.2158-128-128 57.2158-128 128-128z" glyph-name="uniF507" unicode="&#xf507;"/><glyph d="M1151.87 1219.46c.12793-.511719.12793-.896484.12793-1.4082v-1.79199-.255859c0-5.12012-.639648-10.3682-1.91992-15.4883l-128-512c-8.57617-34.1758-43.2637-55.04-77.5684-46.5918-34.3037 8.57617-55.168 43.2637-46.5918 77.5684l108.16 432.512h-174.08c-35.3281 0-64 28.6719-64 64s28.6719 64 64 64h256 1.53613 1.28027c1.02344-.12793 1.91992-.12793 2.81543-.255859h.255859c30.3359-2.68848 54.5283-26.624 57.8564-56.96v0c0-.768555.12793-1.4082.12793-2.04785v-1.28027zM1408 1664h256v-1280h-1408v1280h256v128h128v-128h640v128h128v-128zM1536 640v640c0 70.7842-57.2158 128-128 128h-896c-70.6562 0-128-57.2158-128-128v-640c0-70.7842 57.3438-128 128-128h896c70.7842 0 128 57.2158 128 128z" glyph-name="uniF306" unicode="&#xf306;"/><glyph d="M2048 1920l-832-832 832-832-128-128-832 832-832-832-128 128 832 832-832 832 128 128 832-832 832 832z" glyph-name="uniF406" unicode="&#xf406;"/><glyph d="M1664 1920c141.312 0 256-114.688 256-256v-1280c0-141.312-114.688-256-256-256h-1280c-141.312 0-256 114.688-256 256v1280c0 141.312 114.688 256 256 256h1280zM1024 1408c-212.096 0-384-171.904-384-384 0-211.968 171.904-384 384-384 211.968 0 384 172.032 384 384 0 212.096-172.032 384-384 384zM1792 384v768h-274.176c10.624-41.0879 18.1758-83.4561 18.1758-128 0-282.752-229.248-512-512-512s-512 229.248-512 512c0 44.5439 7.42383 86.9121 18.1758 128h-274.176v-768c0-70.7842 57.3438-128 128-128h1280c70.7842 0 128 57.2158 128 128zM1792 1536v128c0 70.6562-57.2158 128-128 128h-128c-70.7842 0-128-57.3438-128-128v-128c0-70.6562 57.2158-128 128-128h128c70.7842 0 128 57.3438 128 128z" glyph-name="uniF215" unicode="&#xf215;"/><glyph d="M1920 1583.74c-49.2803-73.7285-111.744-138.368-183.552-190.208.767578-15.7441 1.2793-31.6162 1.2793-47.4883 0-485.76-369.92-1046.02-1046.27-1046.02-207.616 0-400.768 60.7998-563.456 165.248 28.7998-3.45605 58.1123-5.24805 87.8076-5.24805 172.032 0 330.752 58.752 456.448 157.439-160.768 2.81641-296.576 108.929-343.424 255.104 22.5283-3.96777 45.4404-6.52832 69.248-6.52832 33.5361 0 65.9199 4.48047 96.7676 12.7998-168.319 33.792-294.912 182.272-294.912 360.448v4.73633c49.6641-27.5205 106.368-44.0322 166.528-45.9521-98.6875 65.9199-163.456 178.432-163.456 305.92 0 67.3281 18.1758 130.688 49.792 184.96 181.376-222.464 452.353-368.768 757.889-384.128-6.27246 26.8799-9.60059 54.9121-9.60059 83.7119 0 203.008 164.608 367.616 367.616 367.616 105.855 0 201.472-44.6719 268.544-116.096 83.584 16.5117 162.304 47.1035 233.216 89.2158-27.3916-85.8887-85.7598-157.952-161.536-203.393 74.3682 8.83203 145.152 28.5439 211.072 57.8564z" glyph-name="uniF202" unicode="&#xf202;"/><glyph d="M1223.94 775.936c20.0967 20.0967 52.0967 19.9688 72.0645 0 19.9678-19.9678 19.9678-52.9912 0-72.96-56.96-56.96-145.92-86.0156-270.976-86.0156-126.977 0-216.064 29.0557-273.024 86.0156-19.9678 19.9688-19.9678 52.9922 0 72.96 19.9678 19.9688 51.9678 19.9688 71.9355 0 38.0166-38.0156 103.04-56.0635 199.04-56.0635 97.9209 0 162.944 18.0479 200.96 56.0635zM894.976 982.016c0-61.0557-49.9199-112-112-112-60.9277 0-110.976 50.9443-110.976 112 0 61.9521 49.9199 112 110.976 112 61.9521 0 112-50.0479 112-112zM1265.02 1094.02c61.9512 0 112-50.0479 112-112 0-61.0557-50.0488-112-112-112-61.9521 0-112 50.9443-112 112 0 61.9521 50.0479 112 112 112zM1698.05 1089.02c24.96 17.9199 43.0078 45.9512 43.1357 78.9756 0 54.0156-44.0312 98.0479-98.0479 98.0479-32 0-57.9834-16-76.0322-39.04 53.8887-39.9355 98.9443-87.04 130.944-137.983zM1021.06 500.992c347.904 0 631.937 177.023 632.064 393.983 0 219.009-284.032 396.032-632.064 396.032-349.056 0-632.96-177.023-632.96-395.008s283.904-395.008 632.96-395.008zM306.944 1168c0-30.9756 16-57.9844 39.9355-74.8799 32 50.9443 76.9277 97.0234 131.968 136.96-17.9199 22.0156-43.0078 35.9678-72.96 35.9678-54.9121 0-98.9434-44.0322-98.9434-98.0479zM1600 1805.06c-41.9844 0-77.0557-35.0713-77.0557-77.0557s35.0713-77.0557 77.0557-77.0557 77.0557 34.9434 77.0557 77.0557-35.0713 77.0557-77.0557 77.0557zM1842.94 1168c0-75.0078-41.9844-137.984-101.889-173.056 8.95996-32 13.9521-64.8965 13.9521-98.9443 0-274.944-329.088-498.048-734.08-498.048s-734.976 222.976-734.976 497.023c0 35.9688 6.01562 70.0166 16.1279 104.064-57.9844 34.9443-97.0244 97.0244-97.0244 168.96 0 110.976 89.9844 200.96 200.96 200.96 66.0488 0 124.032-32.8955 160-82.9443 114.944 60.9287 257.024 99.9688 411.904 105.984l92.0322 456.96c3.07227 14.0801 11.0078 25.9844 23.04 33.0244 12.0322 8.06348 25.9834 9.9834 39.04 7.04004l312.96-72.0645c30.9756 52.9922 88.96 89.9844 155.008 89.9844 98.9443 0 179.072-80 179.072-178.944s-80-178.944-178.944-178.944c-95.1035 0-172.032 73.9844-178.048 167.937l-262.016 60.0322-77.0566-386.049c148.992-7.93555 285.952-46.9756 397.057-108.031 35.9678 51.9678 94.9756 86.0156 162.943 86.0156 109.952 0 199.937-89.9844 199.937-200.96z" glyph-name="uniF222" unicode="&#xf222;"/><glyph d="M1091.2 1920v-452.992h425.216v-281.216h-425.216v-459.52c0-103.937 5.50391-170.624 16.6396-200.192 10.8799-29.3125 31.4883-52.8643 61.3125-70.5283 39.6797-23.8076 84.8633-35.7119 135.936-35.7119 90.624 0 180.864 29.4404 270.72 88.4482v-282.624c-76.6719-35.9678-146.048-61.3125-208-75.9043-61.9512-14.4639-129.023-21.7598-201.216-21.7598-81.9199 0-154.368 10.3682-217.344 30.9756-62.9756 20.6084-116.608 50.3047-161.024 88.4482-44.5439 38.2725-75.2637 78.9766-92.416 122.112-17.1514 43.1357-25.7275 105.6-25.7275 187.52v628.736h-198.016v253.568c70.3994 22.9121 130.688 55.6797 180.863 98.4316 50.3047 42.624 90.4961 93.8242 120.832 153.856 30.3359 59.7754 51.2002 135.808 62.7207 228.352h254.72z" glyph-name="uniF214" unicode="&#xf214;"/><glyph d="M512 1664l1152-640-1152-640v1280z" glyph-name="uniF104" unicode="&#xf104;"/><glyph d="M1408 1152l-384-384-384 384h256v512h256v-512h256zM384 640h1280v-256h-1280v256z" glyph-name="uniF50B" unicode="&#xf50b;"/><glyph d="M1024 1664l640-512-128-128v-512h-1024v512l-128 128zM1152 576v448h-256v-448h256z" glyph-name="uniF409" unicode="&#xf409;"/><glyph d="M1920 1024l-1024-640v480l-768-480v1280l768-480v480z" glyph-name="uniF458" unicode="&#xf458;"/><glyph d="M729.6 1152h550.4s12.7998-38.4004 12.7998-89.5996c0-332.801-230.399-563.2-563.2-563.2-320 0-588.8 268.8-588.8 588.8s281.601 588.8 588.8 588.8c153.601 0 294.4-51.2002 384-153.6l-153.6-153.601c-38.4004 25.6006-102.4 76.8008-230.4 76.8008-204.8 0-371.199-166.4-371.199-371.2s166.399-371.2 371.199-371.2c230.4 0 320 166.4 332.801 243.2h-332.801v204.8zM1664 1152h128v-128h-128v-128h-128v128h-128v128h128v128h128v-128z" glyph-name="uniF218" unicode="&#xf218;"/><glyph d="M1920 1280l-555.136-387.968 212.863-636.032-553.728 394.496-553.728-394.496 212.991 636.032-555.264 387.968h685.312l210.688 640 210.688-640h685.312zM1024 807.68l307.584-219.136-118.4 353.536 300.288 209.92h-371.456l-118.016 358.528v-702.849z" glyph-name="uniF513" unicode="&#xf513;"/><glyph d="M704 1152h960l-256-640h-1024v1024h384l64-128h448v-128h-640l-128-256h128z" glyph-name="uniF301" unicode="&#xf301;"/><glyph d="M128 1408v384h384zM640 768v512h768v-512h-768zM1536 1792h384v-384zM128 640l384-384h-384v384zM1536 256l384 384v-384h-384zM1536 1408l256 384 128-128zM1536 640l384-256-128-128zM128 384l384 256-256-384zM128 1664l128 128 256-384z" glyph-name="uniF474" unicode="&#xf474;"/><glyph d="M1280 1792c141.312 0 256-114.688 256-256v-1024c0-141.312-114.688-256-256-256h-512c-141.312 0-256 114.688-256 256v384h128v-128h768v768h-768v-128h-128v128c0 141.312 114.688 256 256 256h512zM1024 384c70.7842 0 128 57.2158 128 128s-57.2158 128-128 128c-70.6562 0-128-57.2158-128-128s57.3438-128 128-128zM768 896v128h-512v256h512v128l384-256z" glyph-name="uniF438" unicode="&#xf438;"/><glyph d="M256 384v1280l1024-640zM1408 1664h384v-1280h-384v1280z" glyph-name="uniF451" unicode="&#xf451;"/><glyph d="M1024 640c-19.8398 0-39.04 2.43164-57.8564 5.63184l436.225 436.225c3.2002-18.8164 5.63184-38.0166 5.63184-57.8564 0-211.968-172.032-384-384-384zM1696.26 1375.74l351.744-351.744-506.624-506.624c-131.456-134.272-314.752-217.728-517.376-217.728-117.248 0-226.944 29.3115-324.864 79.1035l147.072 146.944c56.7041-20.6084 115.968-34.0479 177.92-34.0479 144 0 279.168 56.832 380.288 160.128l372.096 372.224-216.063 215.936zM1606.02 1722.11l128.641-129.024-1279.87-1279.87-128.896 128.769 128 128.128-453.888 453.888v0l506.496 506.496c131.456 134.4 314.624 217.984 517.504 217.984 170.368 0 324.48-61.8242 448-160.385zM896 1024c70.6562 0 128 57.3438 128 128s-57.3438 128-128 128c-70.7842 0-128-57.3438-128-128s57.2158-128 128-128zM1229.18 1345.28l105.729 105.728c-90.752 66.8164-197.12 105.473-310.912 105.473-144.128 0-279.168-56.9609-380.288-160.385l-372.096-372.096 318.208-318.336 113.023 113.024c-38.6553 59.5195-62.8477 129.023-62.8477 205.312 0 212.096 172.032 384 384 384 76.2881 0 145.792-24.1924 205.184-62.7197z" glyph-name="uniF404" unicode="&#xf404;"/><glyph d="M1073.15 2048c481.664 0 798.976-348.672 798.976-722.944 0-495.104-275.328-865.151-680.96-865.151-136.32 0-264.448 73.7275-308.352 157.439 0 0-73.2168-290.943-88.832-347.136-26.8809-97.2803-79.2324-194.56-127.104-270.208l-148.992 54.0156c-3.58398 88.3203-.639648 194.049 22.0166 289.92 24.1914 102.4 162.304 687.744 162.304 687.744s-40.3203 80.6406-40.3203 199.809c0 187.008 108.544 326.784 243.456 326.784 114.816 0 170.24-86.1445 170.24-189.44 0-115.328-73.7275-288-111.488-448-31.6152-133.632 67.2002-242.816 199.168-242.816 239.232 0 400.128 307.072 400.128 670.977 0 276.607-186.367 483.712-525.184 483.712-382.72 0-621.312-285.568-621.312-604.544 0-110.08 32.5117-187.521 83.1992-247.424 23.5527-27.7764 26.624-38.9121 18.3047-70.6562-6.0166-23.04-19.9688-78.9766-25.7285-101.248-8.44824-32-34.3037-43.2637-63.2314-31.3604-176.257 71.6807-258.433 264.96-258.433 482.048 0 358.656 302.336 788.48 902.145 788.48z" glyph-name="uniF209" unicode="&#xf209;"/><glyph d="M1024 1920c494.08 0 896-402.048 896-896 0-494.08-401.92-896-896-896-493.952 0-896 401.92-896 896 0 493.952 402.048 896 896 896zM1112.83 1769.47c-211.2 10.4961-420.864-73.4717-564.608-220.16-146.432-144.256-216.063-354.176-189.695-551.68 23.4238-197.248 142.592-378.496 307.584-476.032 160.768-96 365.312-104.191 530.943-29.0557-47.1035-13.0557-96.6396-20.3516-147.712-20.3516-303.487 0-550.399 246.911-550.399 550.399 0 143.872 55.6797 274.944 146.304 373.12 1.02441 1.02441 1.91992 1.91992 2.81641 2.94434 4.60742 4.73535 9.08789 9.47168 13.6953 14.208.512695.383789.896484 1.02344 1.4082 1.2793 128 148.353 317.056 242.177 528.256 242.177 221.057 0 418.176-102.912 546.048-263.424-20.8633 33.5352-44.0312 65.6631-69.376 95.6152-137.983 168.832-343.68 273.408-555.264 280.96zM1415.04 1006.21c4.35156-90.3682-25.3438-182.912-80.7676-257.152-55.5527-73.8555-135.169-129.664-225.28-156.928-74.8799-22.7842-156.544-25.5996-234.112-7.04004 54.0166-21.6318 112.896-33.6641 174.464-33.6641 259.968 0 471.296 211.456 471.296 471.296 0 .768555-.12793 1.66406-.12793 2.68848-13.6953 142.336-88.1914 276.352-200.319 359.168-137.345 104.576-332.288 116.864-479.232 38.0156-73.2158-38.5273-136.832-97.1514-176.896-166.912-40.5762-69.8877-58.4961-151.68-52.2246-230.912 10.624-158.976 124.8-305.023 271.616-345.216 146.432-44.0322 313.344 19.584 391.936 142.849 82.5605 120.447 62.7207 293.119-36.3516 391.68-94.0801 104.192-260.992 115.968-367.872 36.8643-54.0156-38.6562-92.5439-94.3359-105.344-157.057-13.3125-62.0801-1.66406-128.64 30.4639-181.76 32.1279-53.7598 83.7119-93.5684 141.952-108.032 58.2402-15.1035 121.6-4.86328 171.52 25.6006 50.5605 30.4639 87.5518 80.1279 97.9199 135.68 11.3926 55.2959-1.66406 114.432-34.3037 158.848-32.1279 45.5684-82.8164 73.3447-135.936 76.9287-52.9922 4.0957-105.856-17.2803-141.568-54.2725-36.6084-35.9678-52.0957-89.0879-44.6719-137.855 7.55176-48.6406 38.2715-93.6963 80-115.584 26.4961-14.7207 57.4717-19.8408 86.9121-16.3848-62.0801 1.53613-114.177 43.2646-131.456 100.097-.512695.767578-1.02441 1.66406-1.4082 2.6875-17.9199 41.4717-13.0557 94.3359 16.1279 133.376 28.416 38.7842 77.5684 63.3604 128.768 60.7998 51.0723-1.66406 101.376-33.0234 128-78.9756 27.3926-45.8242 32-106.752 7.80859-158.336-24.0645-51.7119-73.7285-90.2402-131.584-101.632-57.4717-12.416-122.752 4.73535-167.68 47.3594-44.8008 40.96-72.0645 104.192-67.4561 168.32 3.83984 133.12 150.911 237.44 287.104 200.96 138.368-31.6162 226.944-196.736 173.824-338.304-48.6406-142.72-224.769-225.536-373.888-166.912-74.1123 27.5195-134.784 85.8877-169.729 157.568-34.9443 72.1914-42.2402 158.592-17.9199 237.695 47.8721 161.664 226.176 269.185 398.848 238.464 175.36-25.5996 313.217-192.64 317.568-374.016zM1024 207.488c319.232 0 595.968 184.319 730.112 451.712 37.248 84.7354 58.8799 175.744 58.8799 265.728 0 318.977-247.04 554.368-553.216 607.616 154.496-64 279.296-200.32 331.52-362.496 70.1445-203.136 20.8643-447.872-133.12-608.896-148.224-162.944-384.384-245.633-608.128-206.208-226.048 35.584-422.912 198.271-517.504 407.936-97.792 209.408-90.3682 468.224 26.8799 674.432 116.736 206.337 329.344 354.433 566.272 395.009 11.7754 2.17578 23.6797 3.96777 35.584 5.37598-420.992-32.1279-753.664-384.641-753.664-813.696 0-450.304 366.208-816.512 816.384-816.512z" glyph-name="uniF217" unicode="&#xf217;"/><glyph d="M256 1280h1536v-768h-256v384h-1024v-384h-256v768zM1408 1664v-256h-768v256h768zM1408 640c0-98.3037 37.5039-196.48 112.512-271.488l112.513-112.512h-768l-112.513 112.512c-75.0078 75.0078-112.512 173.185-112.512 271.488v128h768v-128z" glyph-name="uniF469" unicode="&#xf469;"/><glyph d="M384 1248c123.776 0 224-100.224 224-224 0-123.648-100.224-224-224-224s-224 100.352-224 224c0 123.776 100.224 224 224 224zM1024 1248c123.648 0 224-100.224 224-224 0-123.648-100.352-224-224-224-123.776 0-224 100.352-224 224 0 123.776 100.224 224 224 224zM1664 1248c123.648 0 224-100.224 224-224 0-123.648-100.352-224-224-224s-224 100.352-224 224c0 123.776 100.352 224 224 224z" glyph-name="uniF476" unicode="&#xf476;"/><glyph d="M1472 1440c229.888 0 416-186.24 416-416s-186.112-416-416-416-416 186.24-416 416 186.112 416 416 416zM576 1440c229.76 0 416-186.24 416-416s-186.24-416-416-416-416 186.24-416 416 186.24 416 416 416z" glyph-name="uniF211" unicode="&#xf211;"/><glyph d="M1024 1792c424.064 0 768-343.936 768-768s-343.936-768-768-768c-424.192 0-768 343.936-768 768s343.808 768 768 768zM1024 512c70.7842 0 128 57.2158 128 128s-57.2158 128-128 128c-70.6562 0-128-57.2158-128-128s57.3438-128 128-128zM1113.22 896l51.584 640h-281.6l51.2002-640h178.815z" glyph-name="uniF456" unicode="&#xf456;"/><glyph d="M512 1664h358.656c163.328 0 281.855-23.2959 355.712-69.7598 73.7275-46.4639 110.592-120.448 110.592-221.824 0-68.8643-16.1279-125.312-48.3838-169.344-32.3838-44.1602-75.2646-70.6562-128.769-79.6162v-7.93652c72.96-16.2559 125.568-46.7197 157.952-91.3916 32.2559-44.6719 48.5127-104.063 48.5127-178.048 0-105.088-38.0166-187.008-113.921-245.888-76.0312-58.8809-178.943-88.1924-309.248-88.1924h-431.104v1152zM768 1207.81h130.176c66.3047 0 114.176 10.2402 143.872 30.7207 29.5684 20.4795 44.5439 54.3994 44.5439 101.632 0 44.1602-16.1279 75.7754-48.5117 94.9756-32.3838 19.0723-83.4561 28.7998-153.344 28.7998h-116.736v-256.128zM768 1013.89v-300.16h147.456c67.2002 0 116.864 12.9287 148.864 38.6562 32.1279 25.7285 48.1279 65.1523 48.1279 118.145 0 95.6152-68.3525 143.487-204.929 143.487h-139.52v-.12793z" glyph-name="uniF471" unicode="&#xf471;"/><glyph d="M0 896l896-896h-896v896z" glyph-name="uniF433" unicode="&#xf433;"/><glyph d="M1408 512c70.7842 0 128-57.2158 128-128s-57.2158-128-128-128-128 57.2158-128 128 57.2158 128 128 128zM640 512c70.6562 0 128-57.2158 128-128s-57.3438-128-128-128-128 57.2158-128 128 57.3438 128 128 128zM1536 896h-896v-128h896v-128h-1024v1024h-256v128h384v-256h1152z" glyph-name="uniF447" unicode="&#xf447;"/><glyph d="M1024 1510.53l-118.016-358.528h-371.328l300.288-209.92-118.272-353.28 307.328 218.88 307.584-219.136-118.4 353.536 300.288 209.92h-371.456zM1024 1920v0l210.688-640h685.312l-555.136-387.968 212.863-636.032-553.728 394.496-553.728-394.496 212.991 636.032-555.264 387.968h685.312z" glyph-name="uniF511" unicode="&#xf511;"/><glyph d="M1717.72 1436.21c99.7246-99.7246 99.7246-261.281 0-361.006l-232.861-232.989c-98.5723-98.5723-257.44-99.3398-357.421-2.81543l-455.353-455.354h-288.036v287.908l455.097 454.969-.767578.768555c-99.5967 99.5957-99.5967 261.408 0 361.005l232.989 232.989c99.5957 99.7246 261.408 99.7246 361.005 0zM1344.04 1104.01l160.02 160.021-256.031 256.031-160.021-160.02z" glyph-name="uniF427" unicode="&#xf427;"/><glyph d="M1438.08 1832.7c0 0 563.456-229.376 370.176-838.4-267.264-554.496-784.64-349.056-784.64-349.056v-277.504s-19.7119-153.344-202.88-220.288c-183.296-66.6885-351.616 59.5195-351.616 59.5195v279.809c83.584-85.5039 195.712-134.272 240.128-9.98438v945.92h311.68v-537.472s460.416-138.496 522.368 289.792c9.85645 475.392-546.944 472.832-546.944 472.832s-349.184 22.2715-522.495-257.536c-131.2-222.848 37.1191-423.424 37.1191-423.424l-225.279-200.448s-339.2 418.433-7.42383 871.552c430.848 487.681 1159.81 194.688 1159.81 194.688z" glyph-name="uniF219" unicode="&#xf219;"/><glyph d="M512 1408h1024v-128h-1024v128zM1152 1152v-128h-640v128h640zM1280 1024v128h256v-128h-256zM896 768v128h640v-128h-640zM768 896v-128h-256v128h256zM512 512v128h768v-128h-768z" glyph-name="uniF100" unicode="&#xf100;"/><glyph d="M1792 384l-128-128-494.848 494.848c-94.8486-68.9912-210.816-110.848-337.152-110.848-318.08 0-576 257.92-576 576s257.92 576 576 576 576-257.92 576-576c0-126.336-41.8564-242.304-110.848-337.152zM384 1216c0-247.424 200.576-448 448-448 247.552 0 448 200.576 448 448s-200.448 448-448 448c-247.424 0-448-200.576-448-448z" glyph-name="uniF400" unicode="&#xf400;"/><glyph d="M896 1664v-384h-256v384c0 70.7842 57.3438 128 128 128s128-57.2158 128-128zM1408 1664v-384h-256v384c0 70.7842 57.2158 128 128 128s128-57.2158 128-128zM384 1152h1280c0-309.632-219.904-567.68-512-627.072v-268.928h-256v268.928c-292.096 59.2646-512 317.44-512 627.072z" glyph-name="uniF439" unicode="&#xf439;"/><glyph d="M1534.21 717.824l147.712-88.5762c-134.4-223.36-378.24-373.248-657.92-373.248-279.552 0-523.52 149.888-657.92 373.248l147.712 88.7041c92.1602-98.1758 226.816-168.96 382.208-194.688v500.736h-128v128h128v163.456c-76.1602 44.416-128 126.08-128 220.544 0 141.312 114.688 256 256 256s256-114.688 256-256c0-94.4639-51.7119-176.128-128-220.544v-163.456h128v-128h-128v-500.864c155.52 25.7285 289.92 96.3838 382.208 194.688zM1024 1664c-70.6562 0-128-57.3438-128-128s57.3438-128 128-128c70.7842 0 128 57.3438 128 128s-57.2158 128-128 128z" glyph-name="uniF509" unicode="&#xf509;"/><glyph d="M1664 1152v-256h-512v-512h-256v512h-512v256h512v512h256v-512h512z" glyph-name="uniF510" unicode="&#xf510;"/><glyph d="M1888 748.032l-57.5996-139.648-305.408 21.8887c-31.3604-39.9365-66.9443-75.6484-106.88-107.009l21.7598-305.536-139.264-57.5996-200.704 231.552c-25.2158-3.07129-49.9199-7.67969-75.9043-7.67969-25.7275 0-50.1758 4.6084-75.1357 7.67969l-200.96-231.808-139.393 57.7275 21.7607 305.408c-39.9365 31.3604-75.5205 66.9443-107.009 106.88l-305.536-21.7598-57.7275 139.264 231.68 200.832c-3.07129 25.0879-7.67969 49.792-7.67969 75.7764 0 25.7275 4.6084 50.1758 7.55176 75.1357l-231.552 200.96 57.7275 139.393 305.28-21.7607c31.4883 39.9365 67.2002 75.7764 107.265 107.265l-21.7607 305.408 139.137 57.5996 200.96-231.68c24.96 2.94336 49.5352 7.67969 75.3916 7.67969s50.4316-4.73633 75.3916-7.67969l200.96 231.68 139.265-57.5996-21.8887-305.408c39.9365-31.3604 75.6484-67.0723 107.137-107.008l305.408 21.6318 57.5996-139.136-231.552-200.832c3.07129-25.0889 7.67969-49.6641 7.67969-75.6484 0-25.7275-4.6084-50.3037-7.67969-75.2637zM1280 1024c0 141.312-114.688 256-256 256s-256-114.688-256-256 114.688-256 256-256 256 114.688 256 256z" glyph-name="uniF445" unicode="&#xf445;"/><glyph d="M1024 1452.42v-467.328h-155.776v467.328h155.776zM1408 1452.42v-467.328h-155.776v467.328h155.776zM323.2 1920h1596.8v-1090.82l-467.456-445.184h-350.464l-233.6-256h-228.48v256h-512v1224.32zM1764.22 907.136v857.088h-1285.5v-1129.73h350.977v-211.328l233.472 211.328h428.16z" glyph-name="uniF516" unicode="&#xf516;"/><glyph d="M384 512l640 640 640-640h-1280zM384 1408h1280v-128h-1280v128z" glyph-name="uniF435" unicode="&#xf435;"/><glyph d="M1536 1536c141.312 0 256-114.688 256-256v-384c0-141.312-114.688-256-256-256h-448l-448-448v448h-128c-141.312 0-256 114.688-256 256v384c0 141.312 114.688 256 256 256h1024z" glyph-name="uniF300" unicode="&#xf300;"/><glyph d="M1664 768v128l256-256-256-256v128h-256c-282.752 0-512 229.248-512 512 0 141.312-114.688 256-256 256h-384v256h384c282.752 0 512-229.248 512-512 0-141.312 114.688-256 256-256h256zM1408 1280c-61.8242 0-117.888-22.9121-162.176-59.3916-27.3926 83.9678-70.7842 160-128 224.768 82.5596 56.96 182.271 90.624 290.176 90.624h256v128l256-256-256-256v128h-256zM640 768c61.8242 0 117.888 22.9121 162.176 59.3916 27.3926-83.9678 70.7842-160 128-224.768-82.5596-56.832-182.271-90.624-290.176-90.624h-384v256h384z" glyph-name="uniF514" unicode="&#xf514;"/><glyph d="M1408 1408l512-128v-896h-1792v896l512 128 128 256h512zM1024 512.256c247.552 0 448 200.448 448 448 0 247.424-200.448 448-448 448-247.424 0-448-200.576-448-448 0-247.552 200.576-448 448-448zM512 1600v-96.1279l-256-64v160.128h256zM1024 1280.13c176.768 0 320-143.231 320-320 0-176.768-143.232-320-320-320s-320 143.232-320 320c0 176.769 143.232 320 320 320z" glyph-name="uniF102" unicode="&#xf102;"/><glyph d="M640 1344l-320-320 320-320v-320l-640 640 640 640v-320zM1408 1280c282.752 0 512-229.248 512-512v-299.904l-150.016 149.889c-99.9688 99.9678-231.04 150.016-361.984 150.016h-256v-384l-640 640 640 640v-384h256z" glyph-name="uniF466" unicode="&#xf466;"/><glyph d="M1536 1408l-768-384-768 384v128h1536v-128zM0 1216l768-384 256 128v-448h-1024v704zM1920 1152c70.7842 0 128-57.3438 128-128v-640c0-70.7842-57.2158-128-128-128h-640c-70.7842 0-128 57.2158-128 128v640c0 70.6562 57.2158 128 128 128h640zM1920 640v128h-256v256h-128v-256h-256v-128h256v-256h128v256h256z" glyph-name="uniF463" unicode="&#xf463;"/><glyph d="M384 1536h1152v-1024h-1152v1024zM1408 640v640h-896v-640h896z" glyph-name="uniF422" unicode="&#xf422;"/><glyph d="M1024 128c128 0 256 32 368 80-16 144-64 368-208 688-288-96-560-304-704-576 144-128 336-192 544-192zM1536 288c208 144 352 384 384 640-192 32-368 32-576 0 16-32 128-304 192-640zM128 1088v-64c0-224 80-432 224-592 176 288 496 496 784 592-16 48-48 112-80 176-368-112-592-144-928-112zM1760 1536c-160-128-368-192-560-288 48-64 64-112 96-176 208 48 480 32 624 0-16 176-64 336-160 464zM672 1856c-256-112-448-336-512-624 288-32 688 48 832 96-96 192-192 352-320 528zM1024 1920c-64 0-128-16-192-16 128-208 192-320 304-512 128 48 384 128 528 256-160 160-384 272-640 272zM1024 2048c560 0 1024-464 1024-1024s-464-1024-1024-1024-1024 464-1024 1024 464 1024 1024 1024z" glyph-name="uniF201" unicode="&#xf201;"/><glyph d="M1664 1024c141.312 0 256-114.688 256-256s-114.688-256-256-256h-1280c-141.312 0-256 114.688-256 256s114.688 256 256 256h6.52832c-4.35254 20.8643-6.52832 41.9844-6.52832 64 0 176.768 143.232 320 320 320 89.3438 0 169.984-36.8643 227.968-95.8721 60.7998 131.84 193.408 223.872 348.032 223.872 211.968 0 384-171.904 384-384 0-45.1836-9.21582-87.8076-23.5518-128h23.5518z" glyph-name="uniF426" unicode="&#xf426;"/><glyph d="M1024 1792c424.064 0 768-343.936 768-768s-343.936-768-768-768-768 343.936-768 768 343.936 768 768 768zM1536 1024c0 282.752-229.248 512-512 512-94.8477 0-182.528-27.5195-258.688-72.4482l698.368-698.24c44.8008 76.1602 72.3203 163.969 72.3203 258.688zM512 1024c0-282.752 229.248-512 512-512 94.7197 0 182.4 27.5195 258.56 72.3203l-698.239 698.239c-44.8008-76.1592-72.3203-163.84-72.3203-258.56z" glyph-name="uniF446" unicode="&#xf446;"/><glyph d="M1664 1536c0-94.4639-51.7119-176.128-128-220.544v-163.456c0-282.752-229.248-512-512-512-141.312 0-256-114.688-256-256v-128h-256v1059.46c-76.1602 44.416-128 126.08-128 220.544 0 141.312 114.688 256 256 256s256-114.688 256-256c0-94.4639-51.8398-176.128-128-220.544v-490.496c75.5195 44.0322 162.304 71.04 256 71.04 141.312 0 256 114.688 256 256v163.456c-76.2881 44.416-128 126.08-128 220.544 0 141.312 114.688 256 256 256s256-114.688 256-256zM640 1664c-70.6562 0-128-57.3438-128-128s57.3438-128 128-128 128 57.3438 128 128-57.3438 128-128 128zM1408 1408c70.7842 0 128 57.3438 128 128s-57.2158 128-128 128-128-57.3438-128-128 57.2158-128 128-128z" glyph-name="uniF504" unicode="&#xf504;"/><glyph d="M1536 1408l-768-384-768 384v128h1536v-128zM0 1216l768-384 256 128v-448h-1024v704zM1920 1152c70.7842 0 128-57.3438 128-128v-640c0-70.7842-57.2158-128-128-128h-640c-70.7842 0-128 57.2158-128 128v640c0 70.6562 57.2158 128 128 128h640zM1531.52 384l452.48 452.48-90.4961 90.4951-361.984-361.983-180.991 180.992-90.4961-90.4961z" glyph-name="uniF465" unicode="&#xf465;"/><glyph d="M1408 1792l384-384v-768l-384-384h-768l-384 384v768l384 384h768zM1024 512c70.7842 0 128 57.2158 128 128s-57.2158 128-128 128c-70.6562 0-128-57.2158-128-128s57.3438-128 128-128zM1113.22 896l51.584 640h-281.6l51.2002-640h178.815z" glyph-name="uniF424" unicode="&#xf424;"/><glyph d="M1408 1504l128-96-512-768h-128l-288 416 128 128 224-192z" glyph-name="uniF418" unicode="&#xf418;"/><glyph d="M1024 1453.31l493.312-493.312-493.312-493.312-86.6562 86.6553 342.656 342.656h-896v128h896l-342.656 342.656z" glyph-name="uniF429" unicode="&#xf429;"/><glyph d="M477.696 568.192l543.104 543.104 90.3682-90.624-542.976-542.976c-100.225-100.353-152.32-115.84-226.305-135.809 20.0967 74.1123 35.584 126.08 135.809 226.305zM1189.5 1732.61l180.992 180.991 542.976-543.104-180.991-180.992c-50.0488 50.0479-130.944 50.0479-180.992 0l-180.992-180.992c-50.0479-50.0479-50.0479-130.943 0-180.992l-180.992-180.991-543.104 542.976 180.991 180.992c50.0488-50.0479 131.072-50.0479 181.12 0l180.992 181.12c50.0479 50.0479 50.0479 130.943 0 180.992z" glyph-name="uniF308" unicode="&#xf308;"/><glyph d="M1477.76 1792c120.32 0 152.576-68.6084 126.464-195.584l-51.8398-258.688c-40.96-206.848-88.0635-445.695-94.0801-470.144-11.0078-44.1602-27.9033-119.168-132.992-119.168h-250.367c-9.98438 0-9.98438 0-20.0967-10.1123-6.65527-6.65527-393.344-455.424-393.344-455.424-30.208-34.6875-80.3838-28.5439-98.6875-21.1201-18.3047 7.2959-50.6885 29.6963-50.6885 89.9844v1301.63s33.2803 138.624 146.304 138.624h819.328zM1394.94 1391.1l34.3037 179.2c6.27148 29.6963-16.3838 52.4805-40.5762 52.4805h-657.536c-29.8242 0-49.792-26.8799-49.792-49.792v-1015.68c0-3.19922 2.43262-3.83984 4.86426-1.15137 0 0 242.304 290.815 269.184 324.352 26.8809 33.4082 39.168 38.6562 79.3604 38.6562h221.184c30.208 0 47.2324 25.3438 50.3047 40.1924 3.2002 14.8477 28.9277 149.12 34.4316 176.256s-19.3281 54.9121-44.7998 54.9121h-270.976c-35.9688 0-61.8242 25.4717-61.8242 61.3115v39.04c0 35.9678 25.7275 60.416 61.5674 60.416h319.232s46.9756 20.4805 51.0723 39.8076z" glyph-name="uniF226" unicode="&#xf226;"/><glyph d="M1024 1920c493.952 0 896-401.92 896-896 0-493.952-402.048-896-896-896-494.08 0-896 402.048-896 896 0 494.08 401.92 896 896 896zM218.496 1024c0-318.848 185.216-594.432 454.016-724.992l-384.256 1052.93c-44.6719-100.224-69.7598-211.071-69.7598-327.936zM1024 218.496c93.8242 0 183.808 16.1279 267.648 45.5684-2.17676 3.45508-4.09668 7.16797-5.76074 11.2637l-247.552 678.271-241.92-702.336c72.1924-21.248 148.48-32.7676 227.584-32.7676zM1134.98 1401.73l291.072-866.176 80.3838 268.544c34.9443 111.488 61.3125 191.488 61.3125 260.48 0 99.584-35.8398 168.576-66.4326 222.08-40.7031 66.4316-78.9756 122.624-78.9756 189.056 0 74.1123 56.1924 142.977 135.168 142.977 3.58398 0 7.04004-.384766 10.4961-.640625-143.36 131.328-334.208 211.456-544 211.456-281.472 0-529.024-144.256-673.024-363.008 18.9443-.639648 36.7363-.896484 51.8408-.896484 84.2236 0 214.655 10.2402 214.655 10.2402 43.3926 2.56055 48.5127-61.3115 5.24805-66.4316 0 0-43.7754-5.12012-92.1602-7.68066l293.12-872.575 176.256 528.64-125.439 343.936c-43.3926 2.56055-84.4805 7.68066-84.4805 7.68066-43.2637 2.55957-38.2715 68.9922 5.12012 66.4316 0 0 132.992-10.2402 212.225-10.2402 84.2236 0 214.783 10.2402 214.783 10.2402 43.3926 2.56055 48.5127-61.3115 5.12012-66.4316 0 0-43.6475-5.12012-92.2881-7.68066zM1730.82 1410.56c3.58398-25.7275 5.50391-53.248 5.63184-82.8154 0-81.792-15.4883-173.696-61.3125-288.512l-246.144-711.425c239.488 139.521 400.512 399.104 400.512 696.192 0 140.16-35.8398 271.872-98.6875 386.56z" glyph-name="uniF205" unicode="&#xf205;"/><glyph d="M1368.06 1408h-128l-240.129-768h128l-39.9355-128h-448l39.9355 128h128l240.129 768h-128l39.9355 128h448z" glyph-name="uniF472" unicode="&#xf472;"/><glyph d="M1791.62 1265.92c.383789-2.94434.639648-5.75977.639648-8.7041v-466.943c0-2.94434-.255859-5.76074-.511719-8.96094-.12793-.767578-.383789-1.79199-.511719-2.81543-.384766-1.79199-.640625-3.58398-1.15234-5.50391-.255859-1.02441-.768555-2.04785-1.02441-3.07227-.639648-1.66406-1.15137-3.2002-1.79199-4.86426-.511719-1.02344-1.02344-2.04785-1.53613-3.07129-.639648-1.53613-1.40723-2.94434-2.30371-4.48047-.511719-.895508-1.28027-1.91992-1.91992-2.94434-.767578-1.2793-1.66406-2.55957-2.6875-3.96777-.768555-.895508-1.53613-1.79199-2.30469-2.81543-1.02344-1.02441-2.04785-2.30469-3.32812-3.45605-.767578-.896484-1.66406-1.79199-2.6875-2.68848-1.02441-.895508-2.30371-2.04785-3.71191-3.07227-.768555-.767578-1.79199-1.53516-2.81641-2.30371l-1.15137-.767578-702.208-467.072c-11.1367-7.42383-23.8086-11.0078-36.6084-11.0078s-25.4717 3.58398-36.7363 11.2637l-702.208 467.072c-.255859.255859-.639648.511719-1.02344.767578l-2.94434 2.30469c-1.28027.895508-2.55957 2.04785-3.71191 3.07129-.895508.896484-1.79199 1.79199-2.6875 2.68848-1.02441 1.02344-2.17676 2.30371-3.2002 3.45605-.768555.895508-1.53613 1.79199-2.30469 2.81543-.895508 1.28027-1.79199 2.56055-2.6875 3.96875-.768555.895508-1.4082 1.91992-1.91992 2.94336-.896484 1.53613-1.66406 2.94434-2.30371 4.48047-.512695.895508-1.02441 1.91992-1.53613 3.07129-.640625 1.66406-1.15234 3.2002-1.66406 4.86426-.383789.896484-.768555 1.91992-1.02441 3.07227-.511719 1.91992-.767578 3.71191-1.15137 5.50391-.128906 1.02441-.384766 2.04785-.512695 2.94434-.383789 2.81543-.639648 5.75977-.639648 8.57617v466.943c0 2.94434.255859 5.75977.639648 8.7041.12793.896484.383789 1.79199.512695 2.81641.383789 1.91992.639648 3.71191 1.15137 5.50391.255859 1.15137.640625 2.17578 1.02441 3.2002.511719 1.53516 1.02344 3.19922 1.66406 4.86328.511719 1.02441 1.02344 2.04785 1.53613 3.2002.639648 1.53613 1.40723 2.81641 2.30371 4.48047.639648.895508 1.28027 1.91992 1.91992 2.94336.767578 1.28027 1.79199 2.68848 2.6875 3.96875.640625 1.02344 1.4082 1.79199 2.30469 2.81543 1.02344 1.28027 2.04785 2.43164 3.2002 3.58398.895508.768555 1.79199 1.66406 2.6875 2.68848 1.15234 1.02344 2.43164 2.04785 3.71191 3.07129l2.94434 2.17676c.383789.255859.767578.639648 1.15137.895508l702.208 466.944c22.1445 14.7197 51.0723 14.7197 73.2168 0l702.08-467.2c.383789-.255859.767578-.639648 1.15137-.896484.896484-.767578 1.91992-1.53516 2.81641-2.30371 1.2793-.895508 2.55957-1.91992 3.71191-3.07227 1.02344-.895508 1.91992-1.79199 2.6875-2.6875 1.15234-1.02441 2.17676-2.17578 3.32812-3.45605.768555-.896484 1.53613-1.79199 2.30469-2.81641.895508-1.2793 1.79199-2.55957 2.6875-3.96777.639648-.895508 1.4082-1.91992 1.91992-2.94434.896484-1.53516 1.66406-2.81543 2.30371-4.35156.512695-1.02441 1.02441-2.04785 1.53613-3.2002.640625-1.66406 1.15234-3.2002 1.79199-4.73535.255859-1.02441.768555-2.04883 1.02441-3.2002.511719-1.79199.767578-3.58398 1.15137-5.50391.128906-.896484.384766-1.79199.512695-2.81641zM1090.05 1601.28v-307.328l286.208-190.977 231.168 154.24zM957.952 1601.28l-517.248-344.064 231.04-154.24 286.208 191.104v307.2zM387.84 1133.95v-220.416l165.12 110.208zM957.952 446.208v307.328l-286.208 190.976-231.04-154.111zM1024 867.84l233.472 155.904-233.472 155.904-233.472-155.904zM1090.05 446.208l517.376 344.064-231.168 154.111-286.208-190.976v-307.2zM1660.29 913.536v220.416l-165.248-110.208z" glyph-name="uniF216" unicode="&#xf216;"/><glyph d="M1024 1792c424.064 0 768-343.936 768-768s-343.936-768-768-768-768 343.936-768 768 343.936 768 768 768zM476.16 1340.54l-2.81641 3.96777c-4.60742-7.93555-8.83203-16.1279-13.1836-24.3193l4.47949 1.02344 17.5361 6.27246 30.208 2.6875zM1024 384c265.088 0 493.056 162.176 590.208 392.576l-6.52832 10.4961 14.9766 50.8154-34.6885 25.2158-25.3438 7.55273-23.5518 19.8398-55.8086-21.1201-52.7354-3.07227-39.9365 29.0566-39.04 53.5039-.767578 32.5117.895508 54.2725 5.63184 7.55176 4.86426 18.1758 22.7842 35.0723 13.3125 13.0557 18.6875 20.7363 13.0557 25.5996 36.8643 34.9443 37.7598-.383789 27.6484 9.59961 66.4316 7.16797 25.9844-36.8643 24.1924-10.4961c-8.44824 39.4248-20.2246 77.6963-35.585 114.049l-5.50391 5.11914-13.4395-6.65527-28.9277-2.68848-23.8086-21.248-25.9834-35.0723-50.6885-11.6475-23.5518 9.21582 2.6875 40.5762 13.3125 25.2158 46.4639-2.6875 8.57617 21.8877-24.0645 26.624 20.6084 8.32031 40.4482 22.0156 14.4639 11.6484c-49.1523 77.6953-113.664 144.256-190.721 194.688l-4.35156-1.79199 20.3516-17.792-32.8955 5.24805-4.6084-9.34375 21.248-2.56055-7.93555-8.95996-59.9043-10.3682-77.3115-34.3037-59.9043-28.9277-6.27246 59.6475 16.8965 32.6406-12.416 21.7598-45.9521 19.4561-22.1436 17.1523 32.1279 7.67969 69.1201 16.8955 29.8232 1.66406c-64.7676 22.1445-132.991 36.7363-205.056 36.7363-146.56 0-280.064-51.4561-388.096-134.656l38.2715 1.15234 47.7441-12.2881 32-8.19238 34.8164 7.80859 47.6152-6.0166 29.9521 7.2959 5.63184 18.0488 28.1602-2.94434 11.0078-22.7842 47.6162 4.35254-74.752-24.7041-36.0957-20.8643-55.168-42.2402 13.6963-14.9756 38.3994-18.0479 27.3926-28.0322 33.6641 34.4316 19.4551 37.8887 33.0244 22.6553 33.0244-16.7676 9.08789-18.4316 28.9277 10.2393 10.2402-55.168 20.4795-20.0957-74.752-19.0723-54.7842-21.5039 42.752 11.7764-5.24707-17.1523 13.5674-15.3604 11.2646-7.16797-45.9521-18.6875 16.1279 18.8154-25.9844-5.63184-31.2314-14.8477-14.208-16.5117-34.9443-19.3281-25.6006-20.2246-9.72754-23.4238-32.7676-26.752-25.8564-59.3916-8.06348-25.7285-23.6807 47.4883-46.208-.12793-38.3994.255859-49.2803-39.6797-6.52832-43.5205 29.6963-32.3838 57.2158 30.7197-14.8477-43.5195-40.4482-26.1123-39.2959 9.47266-43.5205 18.1758-49.9199 79.1035-22.1436 47.2324-5.24805 16.2559 7.42383-66.0479-.639648-17.1523-8.19238 10.2402-4.99219 16.6396-9.9834 12.416-5.12012 22.9121-.255859 35.9678-26.752 46.3359c-17.4082-58.1113-29.5684-118.399-29.5684-182.144 0-295.936 202.88-543.232 476.16-616.192l-4.0957 12.6729-9.60059 137.6-11.1357 62.8477-67.3281 65.792-31.7441 56.3203-10.624 27.9043 7.67969 16.5117 14.0801 52.9922 7.55273 61.6953-8.32031 4.73633-14.9756-10.8799-19.9688 9.34375 13.4404 6.27246 59.9043 13.8242 39.4238 17.6631-2.43262-26.752 14.5928 24.1924 19.7119-6.91211 67.7119-21.6318 48.5117-33.6641 34.9443-19.3281 8.31934-5.50391-8.19141-48.7676 33.4082 9.47168-8.32031-16.6396 47.3604-10.1123 48-3.96777 31.3594-19.7119 1.28027-57.3447-22.7842-65.4072-27.6475-68.0967-50.1768-30.8477-39.9355-90.8799-36.0957 5.12012 17.1514-23.4238-1.91992-16.5127-33.2803-26.4961c19.4561-1.79199 38.1445-5.8877 57.9844-5.8877z" glyph-name="uniF475" unicode="&#xf475;"/><glyph d="M1408 640l-448 448-448-448-128 128 576 576 576-576z" glyph-name="uniF432" unicode="&#xf432;"/><glyph d="M1024 2048c565.632 0 1024-458.496 1024-1024 0-565.632-458.368-1024-1024-1024-100.864 0-198.016 14.7197-290.176 42.1123 38.7842 61.4395 81.2793 140.288 103.04 219.264 12.6719 45.5684 72.0635 281.6 72.0635 281.6 35.7119-67.9678 139.648-127.743 250.24-127.743 329.088 0 552.448 300.159 552.448 701.823 0 303.744-257.28 586.624-648.192 586.624-486.527 0-731.904-348.8-731.904-639.744 0-176.128 66.5605-332.928 209.664-391.168 23.4248-9.59961 44.416-.511719 51.2002 25.4727 4.73633 18.0479 16 63.4873 20.9922 82.1758 6.78418 25.7275 4.0957 34.6875-14.8477 57.2158-41.0879 48.6406-67.4561 111.488-67.4561 200.704 0 258.816 193.536 490.496 504.063 490.496 274.944 0 426.112-168.064 426.112-392.448 0-295.296-130.432-544.384-324.608-544.384-107.136 0-187.264 88.5762-161.664 197.12 30.7207 129.664 90.4961 269.824 90.4961 363.392 0 83.8398-44.9277 153.729-138.111 153.729-109.44 0-197.504-113.28-197.504-265.088 0-96.6406 32.7676-162.049 32.7676-162.049s-112.128-474.88-131.712-557.951c-18.4316-77.8242-20.7363-163.456-17.9199-235.137-360.832 158.336-612.992 518.784-612.992 937.984 0 565.504 458.496 1024 1024 1024z" glyph-name="uniF210" unicode="&#xf210;"/><glyph d="M1280 1792c141.312 0 256-114.688 256-256v-1024c0-141.312-114.688-256-256-256h-512c-141.312 0-256 114.688-256 256v1024c0 141.312 114.688 256 256 256h512zM1024 384c70.7842 0 128 57.2158 128 128s-57.2158 128-128 128c-70.6562 0-128-57.2158-128-128s57.3438-128 128-128zM1408 768v768h-768v-768h768z" glyph-name="uniF437" unicode="&#xf437;"/><glyph d="M256 256v1536h256v-1536h-256zM1536 1664h256v-768h-256c-256 0-256 128-512 128s-256-128-384-128v768c128 0 128 128 384 128s256-128 512-128z" glyph-name="uniF468" unicode="&#xf468;"/><glyph d="M1088 1792c176.768 0 320-143.232 320-320v-384c0-131.2-78.9756-243.584-192-292.992v150.912c39.04 35.2002 64 85.6318 64 142.08v384c0 105.856-86.1436 192-192 192s-192-86.1436-192-192v-384c0-56.4482 24.96-106.88 64-142.08v-150.912c-112.896 49.4082-192 161.792-192 292.992v384c0 176.768 143.232 320 320 320zM960 1380.99c112.896-49.4082 192-161.792 192-292.992v-384c0-176.768-143.232-320-320-320s-320 143.232-320 320v384c0 131.2 79.1035 243.584 192 292.992v-150.912c-39.04-35.2002-64-85.6318-64-142.08v-384c0-105.856 86.1436-192 192-192s192 86.1436 192 192v384c0 56.4482-24.96 106.88-64 142.08v150.912z" glyph-name="uniF107" unicode="&#xf107;"/><glyph d="M1280 640v256l128 128v-512h-896v896h512l-128-128h-256v-640h640zM1024 1664h640v-640h-128v421.504l-549.504-549.504-90.4961 90.4961 549.504 549.504h-421.504v128z" glyph-name="uniF442" unicode="&#xf442;"/><glyph d="M1664 1024c0-55.9355-35.9678-102.912-85.8877-120.32 13.8232-20.6074 21.8877-45.0557 21.8877-71.6797 0-55.8076-35.9678-102.784-85.8877-120.32 13.8232-20.6074 21.8877-45.0557 21.8877-71.6797 0-70.6562-57.3438-128-128-128h-64c70.6562 0 128-57.3438 128-128s-57.3438-128-128-128h-448c-192 0-256 128-384 128h-128v640h192c128 0 320 256 320 640 0 0 0 128 64 128s192-144 192-320c0-192-32-320-32-320h416c70.6562 0 128-57.3438 128-128z" glyph-name="uniF221" unicode="&#xf221;"/><glyph d="M1856 1024c35.3281 0 64-28.6719 64-64s-28.6719-64-64-64h-204.928c-9.85645-48.7676-26.624-94.5918-46.8486-138.624 116.608-134.528 187.776-309.376 187.776-501.376v-64c0-35.2002-28.6719-64-64-64s-64 28.7998-64 64v64c0 144.896-48.7676 277.888-130.048 385.152-116.736-155.265-300.672-257.152-509.952-257.152-208.768 0-392.448 101.504-509.312 256.128-81.2803-106.88-130.688-239.231-130.688-384.128v-64c0-35.2002-28.6719-64-64-64s-64 28.7998-64 64v64c0 192 71.2959 366.72 187.904 501.376-20.3525 44.0322-36.9922 89.8564-46.9766 138.624h-204.928c-35.3281 0-64 28.6719-64 64s28.6719 64 64 64h192c0 61.6963 12.1602 119.936 29.0557 176-98.1758 129.024-157.056 289.408-157.056 464v64c0 35.3281 28.6719 64 64 64s64-28.6719 64-64v-64c0-353.408 286.592-640 640-640 353.536 0 640 286.592 640 640v64c0 35.3281 28.6719 64 64 64s64-28.6719 64-64v-64c0-173.952-58.4961-333.824-156.032-462.592 17.2803-56.3203 28.0322-115.328 28.0322-177.408h192zM1024 1152c-208.896 0-388.352 126.08-467.84 305.92 116.864 126.08 282.496 206.08 467.84 206.08 185.472 0 350.976-80 467.84-206.08-79.4883-179.84-258.815-305.92-467.84-305.92z" glyph-name="uniF50A" unicode="&#xf50a;"/><glyph d="M1024 1792c424.064 0 768-343.936 768-768s-343.936-768-768-768c-424.192 0-768 343.936-768 768s343.808 768 768 768zM1024 1536c-70.7842 0-128-57.3438-128-128s57.2158-128 128-128c70.6562 0 128 57.3438 128 128s-57.3438 128-128 128zM1280 512v128h-160v512h-320.128v-128h128.128v-384h-160v-128h512z" glyph-name="uniF455" unicode="&#xf455;"/><glyph d="M1105.28 1232.51v92.9287c0 44.1592-36.4805 79.8711-81.2803 79.8711s-81.2803-35.7119-81.2803-79.8711l-.383789-481.024c-2.55957-184.192-155.008-332.416-342.912-332.416-189.696 0-343.424 150.912-343.424 337.28v209.151h262.784v-206.592c0-43.9043 36.3516-79.7441 81.2803-79.7441 44.9277 0 81.2793 35.7119 81.2793 79.7441v487.168c6.65625 180.48 157.185 324.992 342.656 324.992 186.112 0 337.152-145.536 342.656-327.04v-106.624l-156.416-45.8242zM1529.22 1058.43h262.784v-209.151c0-186.368-153.728-337.28-343.424-337.28-188.544 0-341.632 149.376-343.296 334.08v210.304l104.96-48 156.288 45.8242v-211.84c0-44.2881 36.3516-80 81.4072-80 44.9287 0 81.2803 35.7119 81.2803 80v216.063z" glyph-name="uniF223" unicode="&#xf223;"/><glyph d="M1658.75 1791.87c184.192-5.37598 270.976-123.776 260.352-355.072-7.93555-172.928-129.792-409.472-365.439-710.016-243.584-313.729-449.792-470.784-618.368-470.784-104.448 0-192.896 95.6162-264.96 286.72-48.2559 175.232-96.5117 350.336-144.64 525.568-53.6318 190.976-111.232 286.592-172.672 286.592-13.4404 0-60.416-27.7764-140.673-83.584l-84.3516 107.648c88.4482 77.0557 175.616 154.111 261.504 231.168 117.888 100.991 206.464 154.111 265.472 159.487 139.521 13.3125 225.28-81.2793 257.536-283.392 34.8164-218.24 58.8799-353.92 72.4482-407.04 40.1924-180.992 84.4805-271.36 132.736-271.36 37.5039 0 93.8232 58.752 169.088 176.128 75.0078 117.376 115.2 206.849 120.576 268.16 10.624 101.376-29.4404 152.192-120.576 152.192-43.0078 0-87.2959-9.98438-132.736-29.1846 88.0645 285.952 256.512 424.704 504.704 416.769z" glyph-name="uniF212" unicode="&#xf212;"/><glyph d="M729.6 1152h550.4s12.7998-38.4004 12.7998-89.5996c0-332.801-230.399-563.2-563.2-563.2-320 0-588.8 268.8-588.8 588.8s281.601 588.8 588.8 588.8c153.601 0 294.4-51.2002 384-153.6l-153.6-153.601c-38.4004 25.6006-102.4 76.8008-230.4 76.8008-204.8 0-371.199-166.4-371.199-371.2s166.399-371.2 371.199-371.2c230.4 0 320 166.4 332.801 243.2h-332.801v204.8zM1664 1152h128v-128h-128v-128h-128v128h-128v128h128v128h128v-128z" glyph-name="uniF206" unicode="&#xf206;"/><glyph d="M1280 1536l256-128v-128h-128-128-128-128-128-128-128-128-128v128l256 128c0 70.7842 57.3438 128 128 128h384c70.7842 0 128-57.2158 128-128zM1088 1408c35.3281 0 64 28.6719 64 64s-28.6719 64-64 64h-256c-35.3281 0-64-28.6719-64-64s28.6719-64 64-64h256zM1280 1216h128v-704c0-70.7842-57.2158-128-128-128h-640c-70.6562 0-128 57.2158-128 128v704h128v-704h128v704h128v-704h128v704h128v-704h128v704z" glyph-name="uniF407" unicode="&#xf407;"/><glyph d="M1996.03 601.984c116.992-190.208 29.6953-345.984-193.536-345.984h-1556.99c-223.231 0-310.528 155.776-193.536 345.984l759.552 1236.99c116.864 190.336 308.097 190.336 424.961 0zM1024 512c70.7842 0 128 57.2158 128 128s-57.2158 128-128 128c-70.6562 0-128-57.2158-128-128s57.3438-128 128-128zM1113.22 896l51.584 640h-281.6l51.2002-640h178.815z" glyph-name="uniF414" unicode="&#xf414;"/><glyph d="M384 896v256h1280v-256h-1280z" glyph-name="uniF50E" unicode="&#xf50e;"/><glyph d="M1024 384l-647.552 612.992c-149.376 141.312-161.408 383.231-27.1367 540.288 134.4 157.184 364.416 169.855 513.792 28.5439l160.896-152.32 160.768 152.32c149.248 141.184 379.393 128.64 513.792-28.5439 134.656-157.057 122.368-398.977-27.0078-540.416z" glyph-name="uniF461" unicode="&#xf461;"/><glyph d="M1536 1152c70.7842 0 128-57.3438 128-128v-640c0-70.7842-57.2158-128-128-128h-1024c-70.6562 0-128 57.2158-128 128v640c0 70.6562 57.3438 128 128 128v128c0 282.752 229.248 512 512 512s512-229.248 512-512v-128zM768 1152h512v128c0 141.312-114.688 256-256 256s-256-114.688-256-256v-128z" glyph-name="uniF470" unicode="&#xf470;"/><glyph d="M1479.55 819.2c98.5605-32 203.137-51.2002 312.448-51.2002v-512c-848.256 0-1536 687.744-1536 1536h512c0-162.048 38.5283-314.752 105.856-450.816l-189.185-189.184c136.192-235.008 344.96-422.4 595.328-532.224z" glyph-name="uniF50C" unicode="&#xf50c;"/><glyph d="M1856.77 834.048c32.3848-65.6641 50.6885-138.88 50.3047-217.344 0-269.696-218.88-488.704-488.576-488.704-83.584 0-161.92 21.376-230.656 58.1123-50.4316-8.83203-102.016-13.8242-154.496-13.8242-465.279 0-842.624 377.216-842.624 842.496 0 58.2402 6.14453 114.688 17.2803 169.6-42.4961 72.1924-67.0723 156.8-67.0723 246.912 0 269.824 218.88 488.704 488.704 488.704 95.7441 0 184.704-27.3916 260.225-75.0078 46.4639 7.80762 94.5918 12.416 143.871 12.416 465.408 0 842.624-377.344 842.624-842.624 0-62.0801-6.65527-122.752-19.584-180.736zM1466.11 612.096c38.9121 55.5527 58.624 118.656 58.752 188.16 0 58.2402-11.2646 107.904-34.1758 148.353-22.9121 40.3193-54.7842 73.8555-95.2324 100.224-39.168 25.7275-87.8076 48.1279-143.744 66.0479-55.4238 17.9199-118.271 34.1758-186.496 48.6396-53.7598 12.416-93.0557 21.8887-116.479 28.6729-23.04 6.14355-45.4404 15.2314-67.8398 26.3672-21.8887 10.624-38.5283 23.5527-50.4326 38.0166-11.1357 13.9521-16.7676 30.3359-16.7676 49.2803 0 31.2314 16.8955 57.4717 52.2236 80.5117 36.3525 23.5518 85.6318 35.9678 146.048 35.9678 64.8965 0 112.384-11.2637 140.544-32.6396 29.1846-21.6318 54.2725-53.6318 75.5205-93.3125 18.5596-31.3594 34.9434-53.248 50.6875-67.2002 16.3838-14.5918 40.5762-22.3994 71.9365-22.3994 34.9434 0 63.8721 12.416 86.9121 36.4795 23.04 23.4248 34.6875 50.8164 34.6875 81.1523 0 31.3604-9.08789 63.3604-25.2158 95.7441-17.2803 32.3838-44.7998 63.1035-81.9199 92.2881-36.8643 28.5439-83.8398 52.0957-139.008 69.5039-55.8086 16.7676-121.729 25.5996-196.736 25.5996-94.7197 0-177.536-13.1836-247.424-39.04-70.5283-26.3682-125.952-64.3838-163.584-113.664-38.0166-49.2793-56.96-106.496-56.96-170.239 0-67.2002 17.792-123.776 54.2715-169.217 35.0723-44.1592 83.9688-79.8721 144.385-105.728 58.752-25.2158 133.247-47.3604 220.672-66.0479 64.2559-13.3125 115.712-26.2402 154.239-38.0166 36.8643-11.2637 67.3281-27.9033 89.9844-49.2793 22.1436-20.7363 32.6396-46.9766 32.6396-80.1279 0-42.3682-20.2236-76.8008-62.0801-105.345-43.1357-29.0557-100.352-43.9033-169.728-43.9033-50.9443 0-92.416 7.16797-122.624 21.6318-30.3359 13.9521-54.2715 32.5117-70.5283 54.2715-17.2793 22.6562-33.4072 51.4561-48.6396 85.7607-13.4404 31.3594-29.5684 55.8076-49.2803 72.0635-20.7354 17.2803-45.3115 25.7285-74.4961 25.7285-35.0713 0-64.7676-10.3682-87.8076-32.3848-23.5518-21.8877-35.3281-48.6396-35.3281-79.6152 0-48.8965 17.9199-100.608 53.8877-152.192 35.0723-50.9443 82.3047-92.416 138.752-123.136 79.3604-41.8564 180.864-63.1045 301.696-63.1045 100.736 0 189.44 15.4883 263.04 46.208 75.3926 30.9766 132.225 74.4961 171.648 129.92z" glyph-name="uniF220" unicode="&#xf220;"/><glyph d="M1408 1024h512v-256h-310.016c-98.8164-225.92-323.584-384-585.984-384-176.768 0-335.488 72.832-451.072 188.928l.640625.640625c-50.0488 50.0479-50.0488 130.943 0 180.991 50.0479 50.0488 130.943 50.1768 180.991 0 69.376-69.6318 163.456-114.56 269.44-114.56 212.096 0 384 171.904 384 384zM1024 1408c-212.096 0-384-171.904-384-384h-512v256h310.016c98.8164 225.92 323.712 384 585.984 384 176.896 0 335.488-72.96 451.072-188.928 50.0479-50.0479 50.0479-130.944 0-180.992s-130.944-50.0479-180.992 0l-.639648-.639648c-69.376 69.6318-163.328 114.56-269.44 114.56zM832 1024c0 106.112 86.0156 192 192 192 106.112 0 192-85.8877 192-192s-85.8877-192-192-192c-105.984 0-192 85.8877-192 192z" glyph-name="uniF415" unicode="&#xf415;"/><glyph d="M604.672 256h-329.216v990.72h329.216v-990.72zM440.064 1381.89h-2.04883c-110.464 0-182.016 76.1602-182.016 171.137 0 97.1514 73.5996 171.136 186.368 171.136 112.512 0 181.888-74.1123 184.063-171.136 0-94.9766-71.5518-171.137-186.367-171.137zM1792 256h-329.216v530.048c0 133.12-47.3604 224-166.656 224-91.1357 0-145.28-61.1836-169.088-120.32-8.57617-21.2471-10.752-50.9434-10.752-80.5117v-553.216h-329.344s4.35156 897.792 0 990.72h329.344v-140.416c43.7764 67.4561 121.984 163.584 296.448 163.584 216.704 0 379.264-141.567 379.264-445.823v-568.064z" glyph-name="uniF207" unicode="&#xf207;"/><glyph d="M2048 0h-1920l960 959.872z" glyph-name="uniF500" unicode="&#xf500;"/><glyph d="M1024 1536h512v-512l-768-768-512 512zM1280 1152c70.7842 0 128 57.2158 128 128s-57.2158 128-128 128-128-57.2158-128-128 57.2158-128 128-128z" glyph-name="uniF302" unicode="&#xf302;"/><glyph d="M1664 1536c141.312 0 256-114.688 256-256v-384c0-141.312-114.688-256-256-256h-128v-448l-448 448h-331.008l128 128h395.008c211.712 0 384 172.288 384 384v384zM1280 1792c141.312 0 256-114.688 256-256v-384c0-141.312-114.688-256-256-256h-448l-448-448v448h-128c-141.312 0-256 114.688-256 256v384c0 141.312 114.688 256 256 256h1024z" glyph-name="uniF108" unicode="&#xf108;"/><glyph d="M1536 1408l-320-320 320-320-128-128-320 320-320-320-128 128 320 320-320 320 128 128 320-320 320 320z" glyph-name="uniF405" unicode="&#xf405;"/><glyph d="M0 128v1920l960-960z" glyph-name="uniF501" unicode="&#xf501;"/><glyph d="M1024.13 896c-105.984 0-192.128 86.0156-192.128 192v512c0 105.856 86.1436 192 192.128 192 106.112 0 191.872-86.1436 191.872-192v-512c0-105.984-85.7598-192-191.872-192zM1401.47 1024h192c-27.3916-244.48-206.464-441.984-441.472-496v-272h-256v272c-234.88 54.0156-414.08 251.52-441.472 496h192c30.5918-181.504 187.52-320 377.472-320 190.208 0 347.008 138.496 377.472 320z" glyph-name="uniF50D" unicode="&#xf50d;"/><glyph d="M2048 2048v-1920l-960 960z" glyph-name="uniF503" unicode="&#xf503;"/><glyph d="M1024 1792c424.064 0 768-343.936 768-768s-343.936-768-768-768-768 343.936-768 768 343.936 768 768 768zM1024 768c141.312 0 256 114.688 256 256s-114.688 256-256 256-256-114.688-256-256 114.688-256 256-256z" glyph-name="uniF101" unicode="&#xf101;"/><glyph d="M1182.21 1271.81h328.704l-14.4639-302.72h-314.24v-841.088h-320.128v841.088h-222.08v302.72h222.08v258.561c0 203.008 131.456 389.632 434.176 389.632 122.496 0 212.992-11.6484 212.992-11.6484l-7.04004-282.624s-92.5439.640625-193.536.640625c-108.928 0-126.464-50.3037-126.464-133.504 0-12.416 0-15.3604 0-13.9521v-207.104z" glyph-name="uniF204" unicode="&#xf204;"/><glyph d="M1600 640c-70.7842 0-128-57.2158-128-128s57.2158-128 128-128h64v-128h-1024c-141.312 0-256 114.688-256 256v1024c0 141.312 114.688 256 256 256h1024v-1152h-64zM640 384h817.92c-30.7197 34.0479-49.9199 78.5918-49.9199 128s19.2002 93.9521 49.9199 128h-817.92c-70.6562 0-128-57.2158-128-128s57.3438-128 128-128z" glyph-name="uniF444" unicode="&#xf444;"/><glyph d="M1088 1792c176.768 0 320-143.232 320-320v-640c0-247.424-200.576-448-448-448s-448 200.576-448 448v320h128v-320c0-176.768 143.232-320 320-320 176.64 0 320 143.232 320 320v640c0 105.984-86.0156 192-192 192-106.112 0-192-86.0156-192-192v-512c0-35.3281 28.6719-64 64-64s64 28.6719 64 64v451.968h128v-451.968c0-105.984-86.0156-192-192-192-106.112 0-192 86.0156-192 192v512c0 176.768 143.232 320 320 320z" glyph-name="uniF416" unicode="&#xf416;"/><glyph d="M1920 1664v-1280l-768 480v-480l-1024 640 1024 640v-480z" glyph-name="uniF459" unicode="&#xf459;"/><glyph d="M1664 1024c141.312 0 256-114.688 256-256s-114.688-256-256-256h-512v256h256l-384 384-384-384h256v-256h-512c-141.312 0-256 114.688-256 256s114.688 256 256 256h6.40039c-4.09668 20.7363-6.40039 42.1123-6.40039 64 0 176.768 143.232 320 320 320 89.3438 0 169.984-36.7363 227.968-95.8721 60.7998 131.84 193.408 223.872 348.032 223.872 211.968 0 384-171.904 384-384 0-45.1836-9.21582-87.8076-23.5518-128h23.5518z" glyph-name="uniF441" unicode="&#xf441;"/><glyph d="M768 1920l489.344-489.472-640-640-268.928 269.056c-49.792 49.792-49.792 131.2 0 180.992l292.864 292.735-1.28027 2.68848s128 128 128 384zM1738.24 565.76c33.1514-32.7676 53.7598-78.208 53.7598-128.64 0-99.9678-81.1523-181.12-181.12-181.12-50.4316 0-95.7441 20.6084-128.64 53.7598l-330.24 330.24v128l-64 64c-35.2002 35.2002-104.704 23.2959-154.496-26.4961l-75.0078-75.0078c-49.792-49.792-131.2-49.792-180.992 0l-14.8477 14.8477 640 640 14.8477-14.8477c49.792-49.792 49.792-131.2 0-180.992l-75.0078-75.0078c-49.792-49.792-61.6963-119.296-26.4961-154.496l64-64h128zM1610.88 373.12c35.3281 0 64 28.6719 64 64s-28.6719 64-64 64-64-28.6719-64-64 28.6719-64 64-64z" glyph-name="uniF506" unicode="&#xf506;"/><glyph d="M1408 1408c0-167.04-107.264-307.584-256-360.448v-535.552l-256-128v663.552c-148.864 52.8643-256 193.408-256 360.448 0 212.096 171.904 384 384 384 211.968 0 384-171.904 384-384z" glyph-name="uniF105" unicode="&#xf105;"/><glyph d="M384 1664h1280v-1280h-1280v1280zM768 1408c-70.6562 0-128-57.3438-128-128s57.3438-128 128-128 128 57.3438 128 128-57.3438 128-128 128zM1536 512v576l-128 192-448-672-192 288-256-384h1024z" glyph-name="uniF473" unicode="&#xf473;"/><glyph d="M512 1664l1024-640-1024-640v1280z" glyph-name="uniF452" unicode="&#xf452;"/><glyph d="M1792 1150.72l-475.904-329.983 182.528-535.04-474.624 331.903-474.624-331.903 182.528 535.04-475.904 329.983 587.52-1.02344 180.48 535.68 180.48-535.68z" glyph-name="uniF408" unicode="&#xf408;"/><glyph d="M768 1024l1024 640v-1280zM256 384v1280h384v-1280h-384z" glyph-name="uniF450" unicode="&#xf450;"/><glyph d="M1408 1152l384 384v-1024l-384 384v-256c0-70.7842-57.2158-128-128-128h-896c-70.6562 0-128 57.2158-128 128v768c0 70.6562 57.3438 128 128 128h896c70.7842 0 128-57.3438 128-128v-256z" glyph-name="uniF517" unicode="&#xf517;"/><glyph d="M256 896v640h640v-640c0-282.752-229.248-512-512-512v256c141.312 0 256 114.688 256 256h-384zM1152 1536h640v-640c0-282.752-229.248-512-512-512v256c141.312 0 256 114.688 256 256h-384v640z" glyph-name="uniF106" unicode="&#xf106;"/><glyph d="M1664 1920c141.312 0 256-114.688 256-256v-1280c0-141.312-114.688-256-256-256h-1280c-141.312 0-256 114.688-256 256v1280c0 141.312 114.688 256 256 256h1280zM663.168 384v792.96h-263.552v-792.96h263.552zM531.328 1285.25c91.9043 0 149.12 60.9277 149.12 136.96-1.66406 77.6963-57.2158 136.96-147.328 136.96-90.2402 0-149.12-59.2637-149.12-136.96 0-76.0322 57.2158-136.96 145.664-136.96h1.66406zM1613.44 384v454.656c0 243.456-130.049 356.863-303.488 356.863-139.776 0-202.496-76.9277-237.44-130.943v112.384h-263.552c3.45605-74.3682 0-792.96 0-792.96h263.552v442.88c0 23.6797 1.79199 47.3604 8.57617 64.1279 19.0723 47.3604 62.4639 96.3838 135.296 96.3838 95.4883 0 133.504-72.7031 133.504-179.199v-424.192h263.553z" glyph-name="uniF208" unicode="&#xf208;"/><glyph d="M1024 1152c-141.312 0-256 114.688-256 256s114.688 256 256 256 256-114.688 256-256-114.688-256-256-256zM1152 1024c211.968 0 384-171.904 384-384v-256h-1024v256c0 212.096 172.032 384 384 384h256z" glyph-name="uniF304" unicode="&#xf304;"/><glyph d="M655.104 1857.54l368.896-307.968-531.456-328.192-364.544 291.84zM128 929.536l364.544 291.84 531.456-328.064-368.896-308.096zM1024 893.312l531.456 328.064 364.544-291.84-527.232-344.32zM1920 1513.22l-364.544-291.84-531.456 328.192 368.768 307.968zM1025.02 826.88l369.92-306.944 158.464 103.297v-115.713l-528.384-317.056-528.257 317.056v115.713l158.336-103.297z" glyph-name="uniF225" unicode="&#xf225;"/><glyph d="M1152 1408h896v-896h-896v896zM128 1024v384h896v-384h-896zM640 512v384h384v-384h-384zM128 512v384h384v-384h-384z" glyph-name="uniF103" unicode="&#xf103;"/><glyph d="M1408 1280l128-128-576-576-576 576 128 128 448-448z" glyph-name="uniF431" unicode="&#xf431;"/><glyph d="M1024 2048c565.504 0 1024-458.496 1024-1024 0-452.224-293.12-835.712-699.776-971.392-51.9678-9.98438-70.3994 21.7598-70.3994 49.2793 0 33.4082 1.2793 144 1.2793 280.704 0 95.7441-32.7676 158.208-69.5039 189.696 228.097 25.3438 467.456 112 467.456 505.344 0 111.744-39.5518 203.136-105.088 274.688 10.4961 25.8555 45.6963 130.048-10.2402 270.976 0 0-85.8877 27.5205-281.344-104.96-81.792 22.7842-169.344 34.0479-256.384 34.4316-87.04-.383789-174.592-11.6475-256.384-34.4316-195.584 132.48-281.601 104.96-281.601 104.96-55.6797-140.928-20.4795-244.992-9.85547-270.976-65.5361-71.5527-105.472-162.944-105.472-274.688 0-392.32 239.104-480.384 466.432-506.112-29.3125-25.7275-55.6797-70.6553-65.0244-136.96-58.2393-26.2393-206.72-71.2959-297.983 85.248 0 0-54.1445 98.1768-156.929 105.473 0 0-100.096 1.2793-7.04004-62.208 0 0 67.0723-31.4883 113.664-150.017 0 0 60.0322-198.912 344.96-137.216.512695-85.248 1.4082-149.76 1.4082-173.952 0-27.2637-18.6875-58.752-69.8877-49.5361-406.912 135.425-700.288 519.168-700.288 971.648 0 565.504 458.496 1024 1024 1024z" glyph-name="uniF200" unicode="&#xf200;"/><glyph d="M384 896v256h1152v-256h-1152z" glyph-name="uniF421" unicode="&#xf421;"/><glyph d="M640 896v128h-512v256h512v128l384-256zM1536 2048c141.312 0 256-114.688 256-256v-1536c0-141.312-114.688-256-256-256h-1024c-141.312 0-256 114.688-256 256v640h256v-384h1024v1280h-1024v-384h-256v384c0 141.312 114.688 256 256 256h1024zM1024 128c70.7842 0 128 57.2158 128 128s-57.2158 128-128 128c-70.6562 0-128-57.2158-128-128s57.3438-128 128-128z" glyph-name="uniF454" unicode="&#xf454;"/><glyph d="M1536 1664c211.968 0 384-171.904 384-384v-512c0-212.096-172.032-384-384-384h-1024c-212.096 0-384 171.904-384 384v512c0 212.096 171.904 384 384 384h1024zM768 640l640 384-640 384v-768z" glyph-name="uniF213" unicode="&#xf213;"/><glyph d="M1297.15 878.848l494.848-494.848-128-128-494.848 494.848c-94.8486-68.9912-210.816-110.848-337.152-110.848-318.08 0-576 257.92-576 576s257.92 576 576 576 576-257.92 576-576c0-126.336-41.8564-242.304-110.848-337.152zM832 768c247.552 0 448 200.576 448 448s-200.448 448-448 448c-247.424 0-448-200.576-448-448s200.576-448 448-448zM512 1152v128h640v-128h-640z" glyph-name="uniF401" unicode="&#xf401;"/><glyph d="M512 1408v128h128v-128h-128zM768 1408v128h128v-128h-128zM1024 1408v128h128v-128h-128zM1280 1536h128v-128h-128v128zM512 1152v128h128v-128h-128zM768 1152v128h128v-128h-128zM1024 1152v128h128v-128h-128zM1280 1152v128h128v-128h-128zM512 896v128h128v-128h-128zM768 896v128h128v-128h-128zM1024 896v128h128v-128h-128zM1280 896v128h128v-128h-128zM512 640v128h128v-128h-128zM768 640v128h128v-128h-128zM1024 640v128h128v-128h-128zM1280 640v128h128v-128h-128z" glyph-name="uniF436" unicode="&#xf436;"/><glyph d="M1152 0l896 896v-896h-896z" glyph-name="uniF434" unicode="&#xf434;"/><glyph d="M960 1792c388.736 0 704-315.136 704-704 0-388.736-315.264-704-704-704-388.864 0-704 315.264-704 704 0 388.864 315.136 704 704 704zM960 512c317.952 0 576 257.92 576 576s-258.048 576-576 576c-318.08 0-576-257.92-576-576s257.92-576 576-576zM1024 1536v-421.504l297.984-297.984-90.4961-90.4961-335.488 335.488v474.496h128z" glyph-name="uniF303" unicode="&#xf303;"/><glyph d="M1536 1408l-768-384-768 384v128h1536v-128zM0 1216l768-384 256 128v-448h-1024v704zM1920 1152c70.7842 0 128-57.3438 128-128v-640c0-70.7842-57.2158-128-128-128h-640c-70.7842 0-128 57.2158-128 128v640c0 70.6562 57.2158 128 128 128h640zM1920 640v128h-640v-128h640z" glyph-name="uniF464" unicode="&#xf464;"/><glyph d="M256 1280h384l384 384v-1280l-384 384h-384v512zM1295.49 1295.62c69.5039-69.5039 112.512-165.504 112.512-271.616s-43.0078-202.112-112.512-271.488l-90.4961 90.4961c46.3359 46.208 75.0078 110.208 75.0078 180.992 0 70.6562-28.6719 134.656-75.0078 181.12zM1476.61 1476.61c115.712-115.841 187.392-275.841 187.392-452.608 0-176.896-71.6797-336.896-187.392-452.608l-90.4961 90.4961c92.6719 92.6719 149.888 220.672 149.888 362.112 0 141.312-57.2158 269.44-149.888 361.984z" glyph-name="uniF109" unicode="&#xf109;"/><glyph d="M1024 1280c141.312 0 256-114.688 256-256s-114.688-256-256-256-256 114.688-256 256 114.688 256 256 256z" glyph-name="uniF428" unicode="&#xf428;"/></font>
</defs>
</svg>
